osu file format v14

[General]
AudioFilename: El_Poco_Maro_-_Own_the_Sky-Vubey.mp3
AudioLeadIn: 1500
PreviewTime: 110485
Countdown: 0
SampleSet: Normal
StackLeniency: 0.7
Mode: 0
LetterboxInBreaks: 0
WidescreenStoryboard: 0

[Editor]
DistanceSpacing: 1.1
BeatDivisor: 4
GridSize: 4
TimelineZoom: 2

[Metadata]
Title:own the sky (el poco maro Remix)
TitleUnicode:own the sky (el poco maro Remix)
Artist:m-flo + Bella Blue
ArtistUnicode:m-flo + Bella Blue
Creator:monstrata
Version:Flight
Source:
Tags:dnb marathon FUTURE IS WOW
BeatmapID:784105
BeatmapSetID:356277

[Difficulty]
HPDrainRate:6
CircleSize:4
OverallDifficulty:8
ApproachRate:9
SliderMultiplier:1.7
SliderTickRate:1

[Events]
//Background and Video events
0,0,"5jlIOJy - Imgur.jpg",0,0
//Break Periods
//Storyboard Layer 0 (Background)
//Storyboard Layer 1 (Fail)
//Storyboard Layer 2 (Pass)
//Storyboard Layer 3 (Foreground)
//Storyboard Sound Samples

[TimingPoints]
205,344.827586206897,4,2,2,20,1,0
205,-133.333333333333,4,2,2,20,0,0
11239,-114.285714285714,4,2,2,20,0,0
11584,-114.285714285714,4,2,2,30,0,0
11756,-114.285714285714,4,2,2,20,0,0
22273,-100,4,2,1,30,0,0
42963,-133.333333333333,4,2,1,30,0,0
44342,-133.333333333333,4,2,2,30,0,0
66411,-133.333333333333,4,3,0,30,0,0
88480,-117.647058823529,4,2,1,35,0,0
105032,-117.647058823529,4,2,1,45,0,0
106411,-100,4,2,1,50,0,0
107791,-100,4,2,1,55,0,0
110205,-100,4,1,1,70,0,0
110549,-100,4,1,1,60,0,1
132618,-100,4,1,1,45,0,0
154687,-166.666666666667,4,2,2,30,0,0
169860,-166.666666666667,4,2,2,20,0,0
171584,-166.666666666667,4,2,2,35,0,0
171756,-166.666666666667,4,2,2,20,0,0
176756,-133.333333333333,4,2,2,35,0,0
180377,-133.333333333333,4,2,2,30,0,0
180894,-133.333333333333,4,2,2,25,0,0
181411,-133.333333333333,4,2,2,20,0,0
181929,-133.333333333333,4,2,2,15,0,0
182273,-133.333333333333,4,2,2,35,0,0
185894,-133.333333333333,4,2,2,30,0,0
186067,-133.333333333333,4,2,2,35,0,0
186411,-133.333333333333,4,2,2,25,0,0
186584,-133.333333333333,4,2,2,35,0,0
186929,-133.333333333333,4,2,2,20,0,0
187101,-133.333333333333,4,2,2,35,0,0
187446,-133.333333333333,4,2,2,15,0,0
187618,-133.333333333333,4,2,2,35,0,0
190894,-133.333333333333,4,2,2,45,0,0
191411,-133.333333333333,4,2,2,40,0,0
191929,-133.333333333333,4,2,2,35,0,0
192446,-133.333333333333,4,2,2,30,0,0
192963,-133.333333333333,4,2,2,25,0,0
193308,-133.333333333333,4,2,2,45,0,0
196929,-133.333333333333,4,2,2,40,0,0
197101,-133.333333333333,4,2,2,45,0,0
197446,-133.333333333333,4,2,2,35,0,0
197618,-133.333333333333,4,2,2,45,0,0
197963,-133.333333333333,4,2,2,30,0,0
198136,-133.333333333333,4,2,2,45,0,0
198825,-117.647058823529,4,3,1,30,0,0
220894,-117.647058823529,4,2,1,35,0,0
237446,-117.647058823529,4,2,1,45,0,0
238825,-117.647058823529,4,2,1,50,0,0
240205,-117.647058823529,4,2,1,55,0,0
241584,-100,4,2,1,50,0,0
242618,-100,4,1,1,70,0,0
242963,-100,4,1,1,60,0,1
264860,-100,4,1,1,60,0,0
265032,-100,4,1,1,60,0,1
286929,-100,4,1,1,60,0,0
287101,-100,4,1,1,50,0,1
308998,-100,4,1,1,50,0,0

[Colours]
Combo1 : 94,255,255
Combo2 : 174,94,255
Combo3 : 45,150,255
Combo4 : 255,151,255

[HitObjects]
108,253,205,6,0,B|103:296|127:335|165:352|202:349,1,127.500004863739,,,0:0:0:0:
194,263,722,1,0,0:0:0:0:
194,263,894,2,0,L|303:186,1,127.500004863739,2|0,0:0|0:0,0:0:0:0:
315,104,1411,1,0,0:0:0:0:
315,104,1584,6,0,B|359:114|387:155|383:197,1,127.500004863739,,,0:0:0:0:
331,267,2101,1,0,0:0:0:0:
331,267,2273,2,0,B|325:312|356:352|398:361,1,127.500004863739,2|0,0:0|0:0,0:0:0:0:
418,276,2791,1,0,0:0:0:0:
418,276,2963,6,0,L|268:320,1,127.500004863739,,,0:0:0:0:
229,367,3480,1,0,0:0:0:0:
229,367,3653,2,0,B|257:330|257:330|243:229,1,127.500004863739,2|0,0:0|0:0,0:0:0:0:
232,164,4170,1,0,0:0:0:0:
232,164,4342,6,0,B|166:141|166:185|106:165,1,127.500004863739,0|2,0:0|0:0,0:0:0:0:
49,100,4860,2,0,B|71:159|71:159|45:244,1,127.500004863739,0|2,0:0|0:0,0:0:0:0:
28,303,5377,2,0,L|107:283,1,63.7500024318696,,,0:0:0:0:
174,272,5722,6,0,L|155:333,1,63.7500024318696,2|0,0:0|0:0,0:0:0:0:
244,222,6067,2,0,L|262:283,1,63.7500024318696,2|0,3:2|0:0,0:0:0:0:
343,132,6411,2,0,L|324:193,1,63.7500024318696,,,0:0:0:0:
413,83,6756,2,0,L|436:161,1,63.7500024318696,,,0:0:0:0:
512,266,7101,6,0,B|493:224|445:207|405:225,1,127.500004863739,0|2,0:0|0:0,0:0:0:0:
316,299,7618,2,0,B|361:302|400:269|405:226,1,127.500004863739,0|2,0:0|0:0,0:0:0:0:
398,139,8136,1,0,0:0:0:0:
120,139,8480,6,0,L|40:150,2,63.7500024318696,0|0|2,0:0|0:0|0:0,0:0:0:0:
185,195,8998,2,0,L|265:206,2,63.7500024318696,0|0|2,0:0|0:0|0:0,0:0:0:0:
120,251,9515,2,0,L|56:259,1,63.7500024318696,,,0:0:0:0:
188,303,9860,6,0,L|199:383,2,63.7500024318696,0|0|2,0:0|0:0|0:0,0:0:0:0:
276,246,10377,2,0,L|265:326,2,63.7500024318696,0|0|2,0:0|0:0|0:0,0:0:0:0:
375,213,10894,2,0,L|350:271,1,63.7500024318696,,,0:0:0:0:
304,162,11239,6,0,L|275:93,1,74.3750007092953,2|0,0:0|0:0,0:0:0:0:
148,146,11584,2,0,L|221:155,1,74.3750007092953,2|0,3:2|0:0,0:0:0:0:
276,244,11929,2,0,L|349:253,1,74.3750007092953,,,0:0:0:0:
222,306,12274,2,0,L|193:237,1,74.3750007092953,,,0:0:0:0:
302,321,12618,6,0,B|294:370|248:402|197:395|166:363,1,148.750001418591,0|2,0:0|0:0,0:0:0:0:
114,341,13136,2,0,B|136:290|136:290|100:192,1,148.750001418591,0|2,0:0|0:0,0:0:0:0:
45,161,13653,2,0,B|59:183|80:197|103:202,1,74.3750007092953,,,0:0:0:0:
184,86,13998,6,0,L|117:120,1,74.3750007092953,,,0:0:0:0:
183,169,14342,1,2,0:0:0:0:
256,46,14515,2,0,B|242:22|218:8|193:5,1,74.3750007092953,,,0:0:0:0:
184,86,14860,1,2,0:0:0:0:
254,211,15032,1,0,0:0:0:0:
254,128,15205,1,0,0:0:0:0:
182,252,15377,6,0,L|181:345,1,74.3750007092953,,,0:0:0:0:
254,294,15722,1,2,0:0:0:0:
110,210,15894,2,0,L|109:303,1,74.3750007092953,,,0:0:0:0:
182,252,16239,1,2,0:0:0:0:
38,168,16411,2,0,L|37:261,1,74.3750007092953,,,0:0:0:0:
183,168,16756,6,0,L|273:116,1,74.3750007092953,,,0:0:0:0:
254,294,17101,2,0,L|254:190,1,74.3750007092953,2|0,3:2|0:0,0:0:0:0:
397,295,17446,2,0,L|307:242,1,74.3750007092953,,,0:0:0:0:
469,171,17791,2,0,L|378:222,1,74.3750007092953,,,0:0:0:0:
389,382,18136,6,0,B|438:385|480:352|492:304|478:264,1,148.750001418591,0|2,0:0|0:0,0:0:0:0:
353,153,18653,2,0,L|397:295,1,148.750001418591,0|2,0:0|0:0,0:0:0:0:
480,138,19170,2,0,L|457:209,1,74.3750007092953,,,0:0:0:0:
270,140,19515,6,0,L|292:68,1,74.3750007092953,,,0:0:0:0:
300,218,19860,1,2,0:0:0:0:
188,127,20032,2,0,L|137:72,1,74.3750007092953,,,0:0:0:0:
217,204,20377,1,2,0:0:0:0:
353,153,20549,1,0,0:0:0:0:
300,218,20722,1,0,0:0:0:0:
323,74,20894,6,0,B|352:64|383:70|406:87,1,74.3750007092953,,,0:0:0:0:
353,153,21239,1,2,0:0:0:0:
240,61,21411,2,0,B|244:30|265:6|292:-4,1,74.3750007092953,,,0:0:0:0:
353,153,21756,1,2,0:0:0:0:
187,126,21929,2,0,B|163:105|153:76|156:47,1,74.3750007092953,,,0:0:0:0:
269,140,22273,6,0,L|234:253,1,85,0|0,3:0|0:0,0:0:0:0:
163,331,22618,1,2,0:0:0:0:
294,289,22791,2,0,L|358:288,2,42.5,,,0:0:0:0:
163,244,23136,1,2,0:0:0:0:
244,357,23308,2,0,B|269:377|302:379|329:366,1,85,0|0,3:0|0:0,0:0:0:0:
343,224,23653,6,0,B|314:235|296:263|294:291,1,85,,,0:0:0:0:
378,302,23998,1,0,0:0:0:0:
394,155,24170,2,0,L|353:61,1,85,2|0,0:0|0:0,0:0:0:0:
308,143,24515,1,0,0:0:0:0:
428,232,24687,2,0,B|457:219|474:192|476:163,1,85,2|0,0:0|0:0,0:0:0:0:
343,224,25032,6,0,L|385:321,1,85,,,0:0:0:0:
308,143,25377,2,0,B|280:154|261:179|257:207,1,85,2|0,0:0|0:0,0:0:0:0:
343,224,25722,1,0,3:0:0:0:
355,78,25894,2,0,B|360:47|347:18|323:1,1,85,2|0,0:0|0:0,0:0:0:0:
274,65,26239,1,0,3:0:0:0:
389,156,26411,6,0,L|484:170,1,85,2|0,0:0|0:0,0:0:0:0:
434,86,26756,1,0,3:0:0:0:
274,65,26929,2,0,B|245:78|228:105|226:134,1,85,2|0,0:0|0:0,0:0:0:0:
257,207,27273,1,0,3:0:0:0:
343,224,27446,2,0,L|355:308,1,85,2|0,0:0|0:0,0:0:0:0:
351,329,27705,1,0,0:0:0:0:
348,350,27791,6,0,B|311:338|272:354|252:384,1,85,0|0,3:0|0:0,0:0:0:0:
140,276,28136,2,0,B|169:267|199:275|220:293,1,85,2|0,0:0|0:0,0:0:0:0:
166,358,28480,1,0,3:0:0:0:
200,205,28653,2,0,L|222:110,1,85,2|0,0:0|0:0,0:0:0:0:
238,39,28998,1,0,3:0:0:0:
362,156,29170,6,0,L|269:184,1,85,2|0,3:2|0:0,0:0:0:0:
200,205,29515,1,0,3:0:0:0:
300,97,29687,2,0,L|392:68,1,85,2|0,0:0|0:0,0:0:0:0:
445,128,30032,1,0,3:0:0:0:
345,242,30205,2,0,L|323:336,1,85,2|0,0:0|0:0,0:0:0:0:
426,217,30549,5,0,0:0:0:0:
362,156,30722,1,0,0:0:0:0:
405,302,30894,2,0,B|418:341|455:364|492:362,1,85,2|0,0:0|0:0,0:0:0:0:
488,276,31239,1,0,3:0:0:0:
345,242,31411,2,0,L|252:270,1,85,2|0,0:0|0:0,0:0:0:0:
184,299,31756,1,0,3:0:0:0:
122,126,31929,6,0,L|214:154,1,85,2|0,0:0|0:0,0:0:0:0:
283,183,32273,1,0,3:0:0:0:
433,43,32446,2,0,L|340:71,1,85,2|0,0:0|0:0,0:0:0:0:
272,100,32790,1,0,3:0:0:0:
345,242,32963,2,0,B|366:220|373:190|366:163,1,85,2|0,0:0|0:0,0:0:0:0:
180,242,33308,6,0,B|189:271|211:291|238:299,1,85,0|0,3:0|0:0,0:0:0:0:
345,242,33653,1,2,3:2:0:0:
263,218,33825,2,0,L|232:156,2,42.5,,,0:0:0:0:
320,323,34170,2,0,B|359:335|399:317|418:285,1,85,2|0,0:0|0:0,0:0:0:0:
433,231,34515,1,0,3:0:0:0:
324,159,34687,6,0,L|344:242,1,85,2|0,0:0|0:0,0:0:0:0:
404,144,35032,1,0,3:0:0:0:
266,108,35205,2,0,L|285:190,1,85,2|0,0:0|0:0,0:0:0:0:
354,89,35550,1,0,3:0:0:0:
211,56,35722,2,0,L|230:138,1,85,2|0,0:0|0:0,0:0:0:0:
376,14,36067,6,0,B|346:4|315:14|296:37,1,85,0|0,3:0|0:0,0:0:0:0:
333,166,36411,2,0,B|356:145|363:113|353:86,1,85,2|0,0:0|0:0,0:0:0:0:
266,108,36756,1,0,3:0:0:0:
304,274,36929,2,0,L|323:356,1,85,2|0,0:0|0:0,0:0:0:0:
242,331,37273,1,0,3:0:0:0:
285,191,37446,6,0,B|316:186|346:197|366:218,1,85,2|0,0:0|0:0,0:0:0:0:
386,297,37791,1,0,3:0:0:0:
431,169,37963,2,0,L|432:104,2,42.5,2|0|0,0:0|0:0|0:0,0:0:0:0:
470,300,38308,1,0,3:0:0:0:
498,221,38480,1,2,0:0:0:0:
425,371,38653,1,0,0:0:0:0:
363,215,38825,6,0,B|347:188|347:157|359:131,1,85,0|0,3:0|0:0,0:0:0:0:
500,124,39170,2,0,B|484:151|457:166|429:169,1,85,2|0,0:0|0:0,0:0:0:0:
358,133,39515,1,0,3:0:0:0:
418,1,39687,2,0,B|434:27|435:57|424:83,1,85,2|0,0:0|0:0,0:0:0:0:
358,133,40032,1,0,3:0:0:0:
211,59,40205,6,0,B|223:32|248:15|276:13,1,85,2|0,0:0|0:0,0:0:0:0:
285,97,40549,1,0,3:0:0:0:
144,104,40722,2,0,B|125:80|123:49|136:23,1,85,2|0,0:0|0:0,0:0:0:0:
211,59,41067,1,0,3:0:0:0:
74,150,41239,1,0,0:0:0:0:
69,70,41411,1,0,0:0:0:0:
146,187,41584,6,0,L|150:279,1,85,0|0,3:0|0:0,0:0:0:0:
239,350,41929,1,2,0:0:0:0:
234,266,42101,1,0,0:0:0:0:
155,355,42273,1,0,3:0:0:0:
309,303,42446,2,0,L|401:298,1,85,2|0,0:0|0:0,0:0:0:0:
463,251,42791,1,0,3:0:0:0:
344,162,42963,6,0,L|347:225,2,63.7500024318696,2|0|0,0:0|0:0|0:0,0:0:0:0:
342,79,43480,2,0,L|395:44,2,63.7500024318696,2|0|0,0:0|0:0|0:0,0:0:0:0:
271,123,43998,2,0,L|182:76,1,95.6250036478044,2|0,0:0|0:0,0:0:0:0:
150,57,44342,6,0,B|156:116|156:116|135:179|135:179|144:254,1,191.250007295609,4|0,3:2|0:0,0:0:0:0:
88,306,45032,2,0,B|177:267|181:344|279:302,1,191.250007295609,,,0:0:0:0:
313,234,45722,2,0,B|336:192|298:139|237:150|215:194|228:228,1,191.250007295609,2|0,0:0|0:0,0:0:0:0:
273,304,46411,2,0,B|340:319|340:319|388:270|465:281,1,191.250007295609,,,0:0:0:0:
476,202,47101,6,0,B|489:155|489:155|456:66,1,127.500004863739,2|0,0:0|0:0,0:0:0:0:
433,2,47618,1,0,0:0:0:0:
433,2,47791,2,0,B|407:9|388:29|382:53,1,63.7500024318696,2|0,0:0|0:0,0:0:0:0:
304,26,48136,2,0,B|297:52|305:78|322:95,1,63.7500024318696,,,0:0:0:0:
240,123,48480,6,0,B|277:155|285:208|263:248,1,127.500004863739,2|0,0:0|0:0,0:0:0:0:
211,301,48998,2,0,B|148:292|148:292|76:305,1,127.500004863739,2|0,0:0|0:0,0:0:0:0:
120,212,49515,2,0,L|57:222,1,63.7500024318696,2|0,0:0|0:0,0:0:0:0:
17,131,49860,6,0,B|80:140|80:140|150:111,1,127.500004863739,2|0,0:0|0:0,0:0:0:0:
215,82,50377,1,0,0:0:0:0:
215,82,50549,2,0,B|206:144|206:144|235:214,1,127.500004863739,2|0,0:0|0:0,0:0:0:0:
212,285,51067,1,0,0:0:0:0:
212,285,51239,6,0,B|223:240|269:213|312:224,1,127.500004863739,2|0,0:0|0:0,0:0:0:0:
372,168,51756,2,0,B|344:225|344:225|355:287,1,127.500004863739,2|0,0:0|0:0,0:0:0:0:
366,370,52273,2,0,B|389:369|408:356|419:338,1,63.7500024318696,2|0,0:0|0:0,0:0:0:0:
436,258,52618,6,0,L|509:231,1,63.7500024318696,2|0,0:0|0:0,0:0:0:0:
450,164,52963,1,2,0:0:0:0:
450,164,53136,2,0,L|523:137,1,63.7500024318696,2|0,0:0|0:0,0:0:0:0:
464,70,53480,1,2,0:0:0:0:
464,70,53653,2,0,L|523:47,1,63.7500024318696,2|0,0:0|0:0,0:0:0:0:
400,16,53998,5,2,0:0:0:0:
385,98,54170,1,2,0:0:0:0:
400,16,54342,1,0,0:0:0:0:
321,43,54515,2,0,L|258:32,1,63.7500024318696,2|0,0:0|0:0,0:0:0:0:
290,207,54860,1,2,0:0:0:0:
369,180,55032,1,2,0:0:0:0:
306,126,55205,1,0,0:0:0:0:
274,288,55377,6,0,B|316:304|316:304|407:288,1,127.500004863739,2|0,0:0|0:0,0:0:0:0:
479,274,55894,1,0,0:0:0:0:
369,180,56067,2,0,B|333:156|321:110|339:70|370:50,1,127.500004863739,2|0,0:0|0:0,0:0:0:0:
416,115,56584,1,0,0:0:0:0:
299,135,56756,6,0,L|161:162,1,127.500004863739,2|0,0:0|0:0,0:0:0:0:
72,54,57273,2,0,L|197:80,1,127.500004863739,2|0,0:0|0:0,0:0:0:0:
311,53,57791,1,2,0:0:0:0:
242,7,57963,1,0,0:0:0:0:
264,123,58136,6,0,L|282:213,1,63.7500024318696,2|0,0:0|0:0,0:0:0:0:
359,183,58480,1,2,0:0:0:0:
359,183,58653,2,0,L|340:273,1,63.7500024318696,2|0,0:0|0:0,0:0:0:0:
429,241,58998,2,0,L|448:331,2,63.7500024318696,2|2|0,0:0|0:0|0:0,0:0:0:0:
489,85,59515,6,0,L|476:22,2,63.7500024318696,2|2|0,0:0|0:0|0:0,0:0:0:0:
335,85,60032,2,0,L|348:23,2,63.7500024318696,2|0|2,0:0|0:0|0:0,0:0:0:0:
414,162,60549,1,2,0:0:0:0:
413,86,60722,1,0,0:0:0:0:
348,200,60894,6,0,L|361:262,2,63.7500024318696,2|0|0,0:0|0:0|0:0,0:0:0:0:
263,165,61411,2,0,B|276:225|276:225|263:291,1,127.500004863739,2|0,0:0|0:0,0:0:0:0:
194,241,61929,2,0,L|181:303,1,63.7500024318696,2|2,0:0|0:0,0:0:0:0:
113,256,62273,6,0,B|100:316|100:316|112:380,1,127.500004863739,2|0,0:0|0:0,0:0:0:0:
17,330,62791,2,0,L|44:189,1,127.500004863739,2|0,0:0|0:0,0:0:0:0:
106,111,63308,2,0,L|119:174,1,63.7500024318696,2|2,0:0|0:0,0:0:0:0:
175,64,63653,5,2,0:0:0:0:
193,144,63825,2,0,L|205:206,1,63.7500024318696,2|0,0:0|0:0,0:0:0:0:
305,146,64170,1,2,0:0:0:0:
280,224,64342,2,0,L|259:284,1,63.7500024318696,2|0,0:0|0:0,0:0:0:0:
362,212,64687,1,2,0:0:0:0:
380,292,64859,2,0,L|392:354,1,63.7500024318696,2|0,0:0|0:0,0:0:0:0:
441,237,65205,5,2,0:0:0:0:
361,129,65377,1,2,0:0:0:0:
362,212,65549,1,0,0:0:0:0:
439,102,65722,2,0,L|511:76,2,63.7500024318696,,,0:0:0:0:
361,129,66239,1,0,0:0:0:0:
218,100,66411,6,0,L|146:126,2,63.7500024318696,4|0|0,3:2|0:0|0:0,0:0:0:0:
298,74,66929,1,8,0:3:0:0:
201,182,67101,2,0,L|129:208,1,63.7500024318696,2|8,0:2|0:0,0:0:0:0:
30,243,67446,1,0,0:0:0:0:
66,167,67618,1,0,0:0:0:0:
106,279,67791,5,4,0:0:0:0:
182,313,67963,2,0,B|240:290|240:290|319:300,1,127.500004863739,,,0:0:0:0:
276,219,68480,2,0,L|339:227,1,63.7500024318696,2|8,0:2|0:0,0:0:0:0:
248,140,68825,1,0,0:0:0:0:
330,151,68998,1,0,0:0:0:0:
220,61,69170,5,4,0:0:0:0:
197,205,69342,2,0,L|160:286,2,63.7500024318696,,,0:0:0:0:
248,140,69860,2,0,L|274:198,1,63.7500024318696,2|8,0:2|0:0,0:0:0:0:
369,263,70205,1,0,0:0:0:0:
353,183,70378,1,0,0:0:0:0:
288,278,70549,6,0,B|295:323|339:352|383:342,1,127.500004863739,4|0,0:0|0:0,0:0:0:0:
493,263,71067,2,0,B|446:249|446:249|369:263,1,127.500004863739,8|0,0:0|0:0,0:0:0:0:
385,181,71584,2,0,L|461:166,1,63.7500024318696,,,0:0:0:0:
407,96,71929,5,4,0:0:0:0:
300,159,72101,2,0,L|234:196,1,63.7500024318696,,,0:0:0:0:
322,74,72446,1,0,0:0:0:0:
385,181,72618,2,0,L|422:246,1,63.7500024318696,2|8,0:2|0:0,0:0:0:0:
345,327,72963,1,0,0:0:0:0:
323,243,73136,1,0,0:0:0:0:
428,349,73308,6,0,L|509:370,1,63.7500024318696,4|0,0:0|0:0,0:0:0:0:
490,221,73653,2,0,L|475:283,1,63.7500024318696,,,0:0:0:0:
385,181,73998,2,0,L|400:242,1,63.7500024318696,2|8,0:2|0:0,0:0:0:0:
479,60,74342,1,0,0:0:0:0:
457,141,74515,1,0,0:0:0:0:
337,20,74687,5,4,0:0:0:0:
397,81,74860,2,0,L|381:142,2,63.7500024318696,,,0:0:0:0:
277,81,75377,2,0,L|292:142,1,63.7500024318696,2|8,0:2|0:0,0:0:0:0:
292,281,75722,1,0,0:0:0:0:
337,212,75894,1,0,0:0:0:0:
209,276,76067,5,4,0:0:0:0:
375,286,76239,2,0,L|458:289,1,63.7500024318696,8|0,0:3|0:0,0:0:0:0:
381,142,76584,2,0,B|340:116|287:131|265:174,1,127.500004863739,2|0,0:2|0:0,0:0:0:0:
156,196,77101,1,0,0:0:0:0:
198,125,77273,1,0,0:0:0:0:
227,238,77446,5,4,0:3:0:0:
337,212,77618,2,0,B|400:196|400:196|446:130,1,127.500004863739,,,0:0:0:0:
387,76,78136,2,0,L|344:137,1,63.7500024318696,2|8,0:2|0:3,0:0:0:0:
335,9,78480,2,0,L|299:62,1,63.7500024318696,,,0:0:0:0:
256,133,78825,5,4,0:3:0:0:
299,204,78998,2,0,L|336:257,2,63.7500024318696,,,0:0:0:0:
215,205,79515,2,0,L|151:210,1,63.7500024318696,2|4,0:2|0:3,0:0:0:0:
72,298,79860,1,0,0:0:0:0:
68,215,80032,1,0,0:0:0:0:
155,294,80205,5,4,0:3:0:0:
76,381,80377,2,0,L|12:386,2,63.7500024318696,,,0:0:0:0:
238,290,80894,2,0,L|302:285,1,63.7500024318696,2|8,0:2|0:3,0:0:0:0:
151,209,81239,1,0,0:0:0:0:
155,294,81411,1,0,0:0:0:0:
236,205,81584,5,2,0:2:0:0:
147,124,81756,2,0,L|151:202,1,63.7500024318696,,,0:0:0:0:
232,120,82101,2,0,B|230:75|194:40|151:38,1,127.500004863739,2|8,0:2|0:0,0:0:0:0:
68,215,82618,1,0,0:0:0:0:
147,124,82791,1,0,0:0:0:0:
236,205,82963,5,4,0:3:0:0:
317,116,83136,2,0,B|364:114|364:114|412:143|392:207,1,127.500004863739,,,0:0:0:0:
386,264,83653,2,0,L|449:269,1,63.7500024318696,2|8,0:2|0:0,0:0:0:0:
331,340,83998,2,0,L|395:346,1,63.7500024318696,,,0:0:0:0:
293,256,84342,5,4,0:0:0:0:
239,331,84515,1,0,0:0:0:0:
201,246,84687,2,0,L|166:163,1,63.7500024318696,,,0:0:0:0:
282,116,85032,2,0,L|258:175,1,63.7500024318696,2|8,0:2|0:0,0:0:0:0:
202,113,85377,1,0,0:0:0:0:
244,44,85549,1,0,0:0:0:0:
363,114,85722,6,0,B|403:90|413:38|386:1,1,127.500004863739,4|0,0:3|0:0,0:0:0:0:
325,47,86239,1,0,3:0:0:0:
324,181,86411,2,0,B|364:203|414:185|433:144,1,127.500004863739,2|0,0:2|0:0,0:0:0:0:
282,116,86928,1,0,3:0:0:0:
159,180,87101,5,8,0:0:0:0:
202,113,87273,1,0,0:0:0:0:
238,183,87446,2,0,L|232:264,1,63.7500024318696,2|0,0:2|0:0,0:0:0:0:
354,327,87791,2,0,L|300:291,1,63.7500024318696,2|8,0:2|0:0,0:0:0:0:
170,357,88136,2,0,L|228:329,1,63.7500024318696,2|0,0:2|0:0,0:0:0:0:
305,209,88480,6,0,L|383:171,1,72.2500013780594,4|0,0:3|0:0,0:0:0:0:
366,90,88825,2,0,L|300:121,1,72.2500013780594,,,0:0:0:0:
149,127,89170,1,2,0:0:0:0:
227,168,89343,1,0,0:0:0:0:
223,79,89515,1,0,0:0:0:0:
151,215,89687,6,0,B|175:253|220:270|263:258|290:231,1,144.500002756119,2|0,0:0|0:0,0:0:0:0:
340,180,90205,2,0,L|420:194,1,72.2500013780594,0|0,3:0|0:0,0:0:0:0:
395,110,90549,2,0,L|466:122,1,72.2500013780594,0|0,3:0|0:0,0:0:0:0:
371,25,90894,2,0,L|443:38,1,72.2500013780594,0|0,3:0|0:0,0:0:0:0:
316,92,91239,6,0,B|264:109|264:109|152:92,1,144.500002756119,2|0,0:0|0:0,0:0:0:0:
118,187,91756,1,0,0:0:0:0:
118,187,91929,2,0,B|170:170|170:170|282:187,1,144.500002756119,2|0,0:0|0:0,0:0:0:0:
324,294,92446,6,0,B|274:283|244:232|259:183,1,144.500002756119,4|0,0:0|0:0,0:0:0:0:
360,137,92963,2,0,L|344:208,1,72.2500013780594,0|0,3:0|0:0,0:0:0:0:
243,113,93308,2,0,L|259:183,1,72.2500013780594,0|0,3:0|0:0,0:0:0:0:
158,90,93653,2,0,L|141:160,1,72.2500013780594,0|0,3:0|0:0,0:0:0:0:
126,245,93998,6,0,B|165:248|193:227|193:227|245:301,1,144.500002756119,2|0,0:0|0:0,0:0:0:0:
324,294,94515,1,0,0:0:0:0:
374,219,94687,2,0,B|397:208|422:209|444:217,1,72.2500013780594,2|0,0:0|0:0,0:0:0:0:
414,301,95032,1,0,0:0:0:0:
284,213,95205,6,0,B|288:159|338:121|390:131,1,144.500002756119,4|0,0:0|0:0,0:0:0:0:
463,31,95722,2,0,L|392:43,1,72.2500013780594,0|0,3:0|0:0,0:0:0:0:
306,57,96067,1,0,3:0:0:0:
234,5,96240,1,0,0:0:0:0:
224,93,96411,1,0,3:0:0:0:
137,78,96584,1,0,0:0:0:0:
171,164,96756,6,0,B|188:207|188:207|167:309,1,144.500002756119,2|0,0:0|0:0,0:0:0:0:
147,384,97273,1,0,0:0:0:0:
248,280,97446,2,0,L|339:253,1,72.2500013780594,2|0,0:0|0:0,0:0:0:0:
228,360,97791,1,0,0:0:0:0:
268,200,97963,6,0,L|429:152,1,144.500002756119,4|0,0:0|0:0,0:0:0:0:
433,76,98480,2,0,L|352:99,1,72.2500013780594,0|0,3:0|0:0,0:0:0:0:
279,119,98825,1,0,3:0:0:0:
302,35,98997,1,0,0:0:0:0:
195,96,99170,1,0,3:0:0:0:
218,12,99342,1,0,0:0:0:0:
279,119,99515,5,4,0:3:0:0:
386,58,99687,2,0,B|395:32|389:5|375:-15,1,72.2500013780594,,,0:0:0:0:
302,35,100032,1,0,0:0:0:0:
363,142,100205,2,0,B|389:151|416:145|436:131,1,72.2500013780594,2|0,0:0|0:0,0:0:0:0:
386,58,100549,1,0,0:0:0:0:
301,203,100722,6,0,B|288:252|288:252|317:356,1,144.500002756119,4|0,0:0|0:0,0:0:0:0:
378,251,101239,1,2,0:0:0:0:
399,329,101411,1,0,0:0:0:0:
482,190,101584,1,2,0:0:0:0:
461,268,101756,1,0,0:0:0:0:
385,131,101929,1,2,0:0:0:0:
406,209,102101,1,0,0:0:0:0:
466,111,102273,5,2,0:0:0:0:
321,123,102446,1,0,0:0:0:0:
321,36,102618,1,0,0:0:0:0:
397,167,102791,2,0,L|439:190,2,36.1250006890297,0|0|2,0:0|0:0|0:0,0:0:0:0:
397,80,103136,1,0,0:0:0:0:
321,211,103308,1,0,0:0:0:0:
245,79,103480,6,0,B|204:65|204:65|88:86,1,144.500002756119,4|0,0:0|3:0,0:0:0:0:
14,178,103998,1,2,0:0:0:0:
141,155,104171,1,0,0:0:0:0:
141,155,104256,1,0,0:0:0:0:
141,155,104342,1,2,0:2:0:0:
25,98,104515,1,0,0:0:0:0:
86,213,104687,1,2,0:0:0:0:
104,83,104860,1,0,0:0:0:0:
14,178,105032,5,0,0:0:0:0:
51,21,105205,1,0,0:0:0:0:
141,155,105377,1,8,0:0:0:0:
272,114,105549,1,0,0:0:0:0:
163,231,105722,1,0,0:0:0:0:
119,79,105894,1,0,0:0:0:0:
86,212,106067,1,8,0:0:0:0:
196,98,106239,1,0,0:0:0:0:
239,250,106411,5,8,0:0:0:0:
141,155,106584,1,0,0:0:0:0:
108,288,106756,1,8,0:0:0:0:
218,174,106929,1,0,0:0:0:0:
260,326,107101,1,8,0:0:0:0:
315,178,107273,1,0,0:0:0:0:
183,265,107446,1,8,0:0:0:0:
269,91,107618,1,0,0:0:0:0:
341,271,107791,5,8,0:0:0:0:
364,259,107877,1,0,0:0:0:0:
384,241,107963,1,0,0:0:0:0:
399,219,108049,1,0,0:0:0:0:
407,194,108135,1,8,0:0:0:0:
408,168,108222,1,0,0:0:0:0:
402,142,108308,1,0,0:0:0:0:
389,119,108394,1,0,0:0:0:0:
371,100,108480,5,8,0:0:0:0:
346,91,108566,1,0,0:0:0:0:
320,87,108652,1,0,0:0:0:0:
293,90,108738,1,0,0:0:0:0:
268,99,108824,1,8,0:0:0:0:
244,110,108911,1,0,0:0:0:0:
218,116,108997,1,0,0:0:0:0:
192,116,109083,1,0,0:0:0:0:
166,111,109170,6,0,L|101:98,1,42.5,8|0,0:0|0:0,0:0:0:0:
246,174,109342,2,0,L|311:161,1,42.5,2|0,3:0|0:0,0:0:0:0:
143,196,109515,2,0,L|78:183,1,42.5,8|0,0:0|0:0,0:0:0:0:
269,259,109687,2,0,L|334:246,1,42.5,2|0,3:0|0:0,0:0:0:0:
120,281,109860,2,0,L|55:268,1,42.5,8|0,0:0|0:0,0:0:0:0:
292,344,110032,2,0,L|357:331,1,42.5,2|0,3:0|0:0,0:0:0:0:
97,366,110205,5,2,3:1:0:0:
72,68,110549,6,0,L|155:87,1,85,4|0,0:0|0:0,0:0:0:0:
379,26,110894,2,0,L|296:45,1,85,8|0,0:0|0:0,0:0:0:0:
180,169,111239,1,0,0:0:0:0:
320,126,111411,1,0,0:0:0:0:
237,104,111584,1,8,0:0:0:0:
286,269,111756,6,0,L|310:350,1,85,,,0:0:0:0:
121,307,112101,1,0,0:0:0:0:
229,205,112273,1,8,0:0:0:0:
205,287,112445,1,0,0:0:0:0:
121,143,112618,1,0,0:0:0:0:
146,225,112790,1,0,0:0:0:0:
203,118,112963,1,8,0:0:0:0:
223,111,113049,1,0,0:0:0:0:
243,105,113135,1,0,0:0:0:0:
264,99,113221,1,0,0:0:0:0:
284,93,113308,6,0,L|365:117,1,85,2|0,0:0|0:0,0:0:0:0:
243,0,113653,2,0,L|324:24,1,85,8|0,0:0|0:0,0:0:0:0:
203,118,113998,1,0,0:0:0:0:
284,93,114170,1,0,0:0:0:0:
184,200,114342,1,8,0:0:0:0:
141,58,114515,6,0,B|165:34|199:27|229:37,1,85,2|0,0:2|0:0,0:0:0:0:
265,175,114860,1,0,0:0:0:0:
365,68,115032,1,8,0:0:0:0:
203,118,115205,1,0,0:0:0:0:
345,149,115377,1,0,0:0:0:0:
184,200,115549,1,0,0:0:0:0:
284,93,115722,1,8,0:0:0:0:
122,143,115894,1,0,0:0:0:0:
265,175,116067,6,0,L|358:195,1,85,2|0,0:2|0:0,0:0:0:0:
221,35,116411,2,0,L|314:15,1,85,8|0,0:0|0:0,0:0:0:0:
122,143,116756,1,0,0:0:0:0:
265,175,116929,1,0,0:0:0:0:
141,58,117101,1,8,0:0:0:0:
103,228,117273,6,0,L|81:323,1,85,2|0,0:2|0:0,0:0:0:0:
184,200,117618,1,0,0:0:0:0:
22,256,117791,1,8,0:0:0:0:
171,286,117963,1,0,0:0:0:0:
203,118,118136,1,0,0:0:0:0:
103,228,118308,1,0,0:0:0:0:
239,344,118480,1,8,0:0:0:0:
259,347,118566,1,0,0:0:0:0:
281,345,118652,1,0,0:0:0:0:
301,339,118738,1,0,0:0:0:0:
318,329,118825,6,0,B|336:304|338:273|327:247,1,85,2|0,0:0|0:0,0:0:0:0:
184,231,119170,2,0,B|197:258|222:275|249:279,1,85,8|0,0:0|0:0,0:0:0:0:
338,163,119515,1,0,0:0:0:0:
261,195,119687,1,0,0:0:0:0:
327,247,119860,1,8,0:0:0:0:
271,111,120032,6,0,L|228:6,1,85,2|0,0:2|0:0,0:0:0:0:
192,146,120377,1,0,0:0:0:0:
327,247,120549,1,8,0:0:0:0:
421,146,120722,1,0,0:0:0:0:
405,283,120894,1,0,0:0:0:0:
338,163,121067,1,0,0:0:0:0:
243,263,121239,1,8,0:0:0:0:
260,127,121411,1,0,0:0:0:0:
327,247,121584,6,0,L|315:347,1,85,2|0,0:2|0:0,0:0:0:0:
462,219,121929,2,0,L|509:304,1,85,8|0,0:0|0:0,0:0:0:0:
338,163,122273,1,0,0:0:0:0:
405,283,122446,1,0,0:0:0:0:
421,146,122618,1,8,0:0:0:0:
259,196,122791,6,0,B|236:227|238:268|259:296,1,85,2|0,0:2|0:0,0:0:0:0:
327,247,123136,1,0,0:0:0:0:
269,110,123308,1,8,0:0:0:0:
179,229,123480,1,0,0:0:0:0:
338,163,123653,1,0,0:0:0:0:
316,334,123825,1,0,0:0:0:0:
259,196,123998,1,8,0:0:0:0:
261,174,124084,1,0,0:0:0:0:
264,153,124170,1,0,0:0:0:0:
266,132,124256,1,0,0:0:0:0:
269,110,124342,6,0,B|271:67|271:67|236:11,1,85,2|0,0:0|0:0,0:0:0:0:
158,150,124687,2,0,B|156:193|156:193|191:249,1,85,8|0,0:0|0:0,0:0:0:0:
316,334,125032,1,0,0:0:0:0:
259,196,125205,1,0,0:0:0:0:
167,314,125377,1,8,0:0:0:0:
326,247,125549,6,0,B|345:223|348:192|338:166,1,85,2|0,0:2|0:0,0:0:0:0:
190,144,125894,1,0,0:0:0:0:
249,282,126067,1,8,0:0:0:0:
259,196,126239,1,0,0:0:0:0:
167,314,126411,1,0,0:0:0:0:
177,228,126584,1,0,0:0:0:0:
236,365,126756,1,8,0:0:0:0:
249,282,126929,1,0,0:0:0:0:
85,346,127101,6,0,L|-18:385,1,85,2|0,0:2|0:0,0:0:0:0:
136,234,127446,2,0,L|175:337,1,85,8|0,0:0|0:0,0:0:0:0:
294,173,127791,2,0,L|215:203,2,85,0|0|8,0:0|0:0|0:0,0:0:0:0:
343,62,128308,6,0,L|422:31,1,85,2|0,0:2|0:0,0:0:0:0:
263,93,128653,1,0,0:0:0:0:
374,142,128825,1,8,0:0:0:0:
343,62,128998,1,0,0:0:0:0:
294,173,129170,1,0,0:0:0:0:
232,13,129342,1,0,0:0:0:0:
183,124,129515,1,8,0:0:0:0:
190,143,129601,1,0,0:0:0:0:
198,163,129687,1,0,0:0:0:0:
205,183,129773,1,0,0:0:0:0:
213,203,129860,6,0,B|219:243|199:280|166:298,1,85,2|0,0:0|0:0,0:0:0:0:
45,236,130205,2,0,L|129:220,1,85,8|0,0:0|0:0,0:0:0:0:
294,173,130549,1,0,0:0:0:0:
183,124,130722,1,0,0:0:0:0:
279,258,130894,1,8,0:0:0:0:
262,94,131067,1,0,0:0:0:0:
200,288,131239,6,0,L|130:314,1,42.5,2|0,0:3|2:0,0:0:0:0:
213,203,131411,1,0,0:0:0:0:
279,258,131584,1,0,0:0:0:0:
373,143,131756,6,0,L|442:116,1,42.5,2|0,0:3|2:0,0:0:0:0:
360,228,131928,1,0,0:0:0:0:
294,173,132101,1,0,0:0:0:0:
264,343,132273,5,8,0:0:0:0:
426,283,132446,1,2,0:0:0:0:
279,258,132618,6,0,L|182:294,1,85,4|0,0:2|0:0,0:0:0:0:
133,173,132963,1,8,0:0:0:0:
133,173,133136,2,0,B|217:201|217:201|310:167,1,170,,,0:0:0:0:
386,58,133653,2,0,L|307:88,1,85,8|0,0:0|0:0,0:0:0:0:
360,228,133998,5,0,0:0:0:0:
373,143,134170,1,0,0:0:0:0:
279,258,134342,1,8,0:0:0:0:
426,283,134515,2,0,B|446:256|449:223|438:194,1,85,,,0:0:0:0:
360,228,134860,1,2,0:0:0:0:
412,368,135032,2,0,B|445:371|476:357|495:333,1,85,8|0,0:0|0:0,0:0:0:0:
347,312,135377,6,0,L|256:348,1,85,2|0,0:2|0:0,0:0:0:0:
248,178,135722,2,0,L|283:268,1,85,8|0,0:0|0:0,0:0:0:0:
364,112,136067,2,0,L|334:192,1,85,2|0,0:2|0:0,0:0:0:0:
280,14,136411,2,0,L|280:99,1,85,8|0,0:0|0:0,0:0:0:0:
169,146,136756,5,2,0:2:0:0:
201,67,136929,1,0,0:0:0:0:
248,178,137101,1,8,0:0:0:0:
115,77,137273,2,0,B|110:47|122:19|143:1,1,85,2|2,0:2|0:2,0:0:0:0:
280,99,137618,1,2,0:0:0:0:
180,230,137791,1,8,0:0:0:0:
169,146,137963,1,0,0:0:0:0:
332,166,138136,6,0,L|424:152,1,85,2|0,0:0|0:0,0:0:0:0:
423,32,138480,1,8,0:0:0:0:
423,32,138653,2,0,B|390:81|390:81|280:99,1,170,,,0:0:0:0:
115,77,139170,1,8,0:0:0:0:
239,28,139342,6,0,L|331:14,1,85,2|0,0:2|0:0,0:0:0:0:
169,146,139687,2,0,L|253:158,1,85,2|8,0:2|0:0,0:0:0:0:
67,51,140032,2,0,L|151:38,1,85,2|0,0:2|0:0,0:0:0:0:
71,218,140377,1,2,0:0:0:0:
169,146,140549,1,8,0:0:0:0:
84,133,140722,1,0,0:0:0:0:
101,297,140894,6,0,B|125:315|155:319|182:312,1,85,2|0,0:0|0:0,0:0:0:0:
156,231,141239,1,8,0:0:0:0:
17,285,141411,2,0,B|13:315|24:343|44:362,1,85,2|0,0:2|0:0,0:0:0:0:
101,297,141756,1,0,0:0:0:0:
84,133,141929,2,0,L|-27:116,1,85,8|0,0:0|0:0,0:0:0:0:
156,231,142273,6,0,L|267:248,1,85,2|0,0:2|0:0,0:0:0:0:
324,255,142618,1,8,0:0:0:0:
261,98,142791,2,0,L|190:185,1,85,2|0,0:2|0:0,0:0:0:0:
156,231,143136,1,2,0:0:0:0:
291,177,143308,2,0,L|402:194,1,85,8|0,0:0|0:0,0:0:0:0:
429,74,143653,6,0,L|318:91,1,85,2|0,0:0|0:0,0:0:0:0:
261,98,143998,1,8,0:0:0:0:
178,22,144170,2,0,B|224:41|247:91|234:140|202:169,1,170,2|0,0:2|0:0,0:0:0:0:
142,102,144687,1,8,0:0:0:0:
291,177,144860,6,0,L|402:194,1,85,2|0,0:2|0:0,0:0:0:0:
429,74,145205,2,0,L|318:91,1,85,2|8,0:2|0:0,0:0:0:0:
207,163,145549,2,0,L|318:180,1,85,2|0,0:2|0:0,0:0:0:0:
261,98,145894,1,2,0:0:0:0:
237,242,146067,2,0,L|220:353,1,85,8|0,0:0|0:0,0:0:0:0:
421,283,146411,5,2,0:2:0:0:
356,230,146583,1,0,0:0:0:0:
291,177,146756,1,8,0:0:0:0:
265,343,146929,5,2,0:2:0:0:
342,312,147101,1,0,0:0:0:0:
421,283,147274,1,2,0:0:0:0:
304,94,147446,5,8,0:0:0:0:
278,260,147618,1,2,0:2:0:0:
278,260,147963,5,2,0:0:0:0:
369,146,148136,1,8,0:0:0:0:
224,124,148308,1,2,0:2:0:0:
265,343,148480,5,2,0:2:0:0:
356,229,148653,1,0,0:0:0:0:
211,207,148825,1,8,0:0:0:0:
278,260,148998,1,0,0:0:0:0:
304,94,149170,6,0,B|292:56|254:33|217:38,1,85,2|0,0:0|0:0,0:0:0:0:
224,124,149515,1,8,0:0:0:0:
369,146,149687,2,0,L|461:110,1,85,2|0,0:2|0:0,0:0:0:0:
382,65,150032,1,2,0:0:0:0:
356,229,150205,1,8,0:0:0:0:
291,177,150377,1,0,0:0:0:0:
265,343,150549,6,0,L|172:378,1,85,2|0,0:2|0:0,0:0:0:0:
118,319,150894,1,8,0:0:0:0:
278,260,151067,2,0,L|370:295,1,85,2|0,0:2|0:0,0:0:0:0:
425,236,151412,1,2,0:0:0:0:
304,94,151584,1,8,0:0:0:0:
291,177,151756,1,0,0:0:0:0:
382,65,151929,5,2,0:2:0:0:
224,124,152101,1,0,0:0:0:0:
369,146,152273,1,8,0:0:0:0:
238,41,152446,1,0,0:0:0:0:
211,207,152618,1,2,0:3:0:0:
304,94,152791,1,0,0:0:0:0:
144,154,152963,1,8,0:0:0:0:
291,177,153136,1,0,0:0:0:0:
157,71,153308,5,8,0:0:0:0:
131,237,153480,1,2,0:0:0:0:
224,124,153653,1,2,0:0:0:0:
64,184,153825,1,8,0:0:0:0:
195,292,153998,5,0,0:0:0:0:
210,293,154084,1,0,0:0:0:0:
226,292,154170,1,0,0:0:0:0:
241,287,154256,1,0,0:0:0:0:
256,280,154342,1,0,0:0:0:0:
268,270,154429,1,0,0:0:0:0:
279,258,154515,1,0,0:0:0:0:
287,245,154601,1,0,0:0:0:0:
293,229,154687,6,0,B|300:170|347:126|405:119|452:141,1,203.999993774414,4|0,0:0|0:0,0:0:0:0:
404,242,155722,1,2,0:0:0:0:
228,320,156067,6,0,B|184:220|268:224|216:108,1,203.999993774414,,,0:0:0:0:
156,44,157101,1,0,0:0:0:0:
136,178,157446,6,0,B|199:194|199:194|338:158,1,203.999993774414,2|0,0:0|0:0,0:0:0:0:
307,60,158480,1,0,0:0:0:0:
156,44,158825,6,0,B|106:39|106:39|73:88|16:96,2,152.999995330811,,,0:0:0:0:
310,122,160205,6,0,L|421:134,2,101.999996887207,2|0|0,0:0|0:0|0:0,0:0:0:0:
208,109,161239,1,0,0:0:0:0:
136,178,161584,6,0,L|57:252,2,101.999996887207,2|0|0,0:0|0:0|0:0,0:0:0:0:
232,206,162618,1,0,0:0:0:0:
328,234,162963,6,0,L|431:265,1,101.999996887207,2|0,0:0|0:0,0:0:0:0:
487,89,163653,2,0,L|384:120,1,101.999996887207,2|0,0:0|0:0,0:0:0:0:
282,40,164342,6,0,L|178:8,2,101.999996887207,,,0:0:0:0:
378,69,165377,1,0,0:0:0:0:
400,166,165722,6,0,L|413:221,1,50.9999984436036,2|0,0:0|0:0,0:0:0:0:
460,275,166067,2,0,B|435:249|397:243|367:257,1,101.999996887207,2|0,3:2|0:0,0:0:0:0:
256,364,166756,1,0,0:0:0:0:
146,257,167101,6,0,L|132:201,1,50.9999984436036,2|0,0:0|2:0,0:0:0:0:
86,148,167446,2,0,B|111:174|149:180|179:166,1,101.999996887207,2|0,3:2|0:0,0:0:0:0:
256,32,168136,1,0,0:0:0:0:
359,144,168480,6,0,B|334:118|296:112|266:126,1,101.999996887207,2|0,0:0|0:0,0:0:0:0:
146,257,169170,2,0,L|159:312,1,50.9999984436036,2|0,0:0|0:0,0:0:0:0:
236,220,169515,2,0,L|225:270,1,50.9999984436036,,,0:0:0:0:
302,180,169860,6,0,L|326:282,1,101.999996887207,2|0,0:0|0:0,0:0:0:0:
400,210,170377,2,0,L|298:179,1,101.999996887207,2|0,0:0|0:0,0:0:0:0:
282,105,170894,2,0,L|221:123,1,50.9999984436036,2|0,0:0|0:0,0:0:0:0:
144,93,171239,6,0,L|162:153,1,50.9999984436036,2|0,0:0|0:0,0:0:0:0:
214,194,171584,2,0,L|195:254,1,50.9999984436036,2|0,3:2|0:0,0:0:0:0:
275,247,171929,2,0,L|293:307,1,50.9999984436036,,,0:0:0:0:
365,299,172273,2,0,L|350:347,1,50.9999984436036,,,0:0:0:0:
426,356,172618,6,0,B|447:283|447:283|437:240,1,101.999996887207,0|2,0:0|0:0,0:0:0:0:
420,183,173136,2,0,B|372:200|372:200|306:182,1,101.999996887207,0|2,0:0|0:0,0:0:0:0:
304,111,173653,2,0,L|241:88,1,50.9999984436036,,,0:0:0:0:
199,41,173998,6,0,B|230:72|230:121|204:152,1,101.999996887207,0|2,0:0|0:0,0:0:0:0:
141,160,174515,2,0,B|183:148|226:172|239:211,1,101.999996887207,0|2,0:0|0:0,0:0:0:0:
164,239,175032,6,0,L|273:233,1,101.999996887207,0|2,0:0|0:0,0:0:0:0:
332,199,175549,2,0,L|223:193,1,101.999996887207,0|2,0:0|0:0,0:0:0:0:
190,127,176067,6,0,L|139:124,1,50.9999984436036,2|0,0:0|0:0,0:0:0:0:
229,62,176411,2,0,L|258:16,1,50.9999984436036,2|0,0:0|0:0,0:0:0:0:
265,128,176756,6,0,L|299:196,1,63.7500024318696,6|0,0:0|0:0,0:0:0:0:
375,202,177101,2,0,L|340:270,1,63.7500024318696,,,0:0:0:0:
353,341,177446,2,0,B|330:295|330:295|250:274,1,127.500004863739,2|0,0:0|0:0,0:0:0:0:
232,153,177963,1,0,0:0:0:0:
232,153,178136,6,0,B|255:199|255:199|335:220,1,127.500004863739,2|0,0:0|0:0,0:0:0:0:
337,103,178653,2,0,B|308:145|308:145|330:225,1,127.500004863739,2|0,0:0|0:0,0:0:0:0:
449,161,179170,2,0,B|385:158,1,63.7500024318696,2|0,0:0|0:0,0:0:0:0:
260,80,179515,1,0,0:0:0:0:
218,384,179860,5,2,0:0:0:0:
226,353,180377,1,2,0:0:0:0:
234,322,180894,1,2,0:0:0:0:
242,291,181411,1,2,0:0:0:0:
250,260,181929,1,2,0:0:0:0:
258,229,182273,6,0,L|339:205,1,63.7500024318696,2|0,0:0|0:0,0:0:0:0:
304,129,182618,2,0,L|365:146,1,63.7500024318696,,,0:0:0:0:
437,106,182963,2,0,B|399:128|382:174|396:216|425:241,1,127.500004863739,2|0,0:0|0:0,0:0:0:0:
479,179,183480,1,0,0:0:0:0:
319,211,183653,6,0,L|158:258,1,127.500004863739,2|0,0:0|0:0,0:0:0:0:
289,335,184170,2,0,L|328:171,1,127.500004863739,2|0,0:0|0:0,0:0:0:0:
212,135,184687,2,0,B|212:158|226:178|245:187,1,63.7500024318696,2|0,0:0|0:0,0:0:0:0:
349,111,185032,2,0,L|287:123,1,63.7500024318696,,,0:0:0:0:
165,77,185377,6,0,B|148:61|142:38|145:17,2,63.7500024318696,2|0|0,0:0|0:0|0:0,0:0:0:0:
239,64,185894,2,0,B|255:47|261:25|258:4,2,63.7500024318696,2|0|0,0:0|0:0|0:0,0:0:0:0:
155,149,186411,2,0,B|132:147|113:134|102:116,2,63.7500024318696,2|0|0,0:0|0:0|0:0,0:0:0:0:
274,130,186929,2,0,B|300:116|313:90|312:63,2,63.7500024318696,2|0|0,0:0|0:0|0:0,0:0:0:0:
222,183,187446,2,0,B|221:212|237:237|261:249,1,63.7500024318696,2|0,0:0|0:0,0:0:0:0:
342,314,187791,6,0,B|323:301|301:300|281:307,1,63.7500024318696,2|0,0:0|0:0,0:0:0:0:
232,366,188136,2,0,B|212:378|190:379|170:373,1,63.7500024318696,,,0:0:0:0:
157,250,188480,2,0,B|177:261|190:280|194:300,1,63.7500024318696,2|0,0:0|0:0,0:0:0:0:
119,317,188825,2,0,L|41:329,1,63.7500024318696,,,0:0:0:0:
18,259,189170,6,0,L|81:249,2,63.7500024318696,2|0|0,0:0|0:0|0:0,0:0:0:0:
79,132,189687,2,0,L|119:182,2,63.7500024318696,2|0|0,0:0|0:0|0:0,0:0:0:0:
219,121,190205,2,0,L|195:180,1,63.7500024318696,2|0,0:0|0:0,0:0:0:0:
157,250,190549,1,0,0:0:0:0:
358,354,190894,5,2,0:0:0:0:
247,50,191411,1,2,0:0:0:0:
158,361,191929,1,2,0:0:0:0:
412,161,192446,1,2,0:0:0:0:
88,173,192963,1,2,0:0:0:0:
254,217,193308,6,0,L|313:195,1,63.7500024318696,2|0,0:0|0:0,0:0:0:0:
239,292,193653,2,0,L|227:354,1,63.7500024318696,,,0:0:0:0:
181,241,193998,2,0,L|132:199,1,63.7500024318696,2|0,0:0|0:0,0:0:0:0:
103,84,194342,2,0,L|152:126,1,63.7500024318696,,,0:0:0:0:
256,76,194687,6,0,B|213:61|167:85|151:125,1,127.500004863739,2|0,0:0|0:0,0:0:0:0:
217,264,195205,2,0,B|251:234|254:183|226:150,1,127.500004863739,2|0,0:0|0:0,0:0:0:0:
105,191,195722,2,0,L|168:201,1,63.7500024318696,2|0,0:0|0:0,0:0:0:0:
80,119,196067,2,0,L|17:108,1,63.7500024318696,,,0:0:0:0:
57,250,196411,6,0,L|79:309,1,63.7500024318696,2|0,0:0|0:0,0:0:0:0:
109,380,196756,1,0,0:0:0:0:
156,319,196929,2,0,L|218:329,1,63.7500024318696,2|0,0:0|0:0,0:0:0:0:
294,338,197274,1,0,0:0:0:0:
304,219,197446,6,0,L|263:268,1,63.7500024318696,2|0,0:0|0:0,0:0:0:0:
294,338,197791,1,0,0:0:0:0:
353,281,197963,2,0,L|415:291,1,63.7500024318696,2|0,0:0|0:0,0:0:0:0:
491,300,198308,1,0,0:0:0:0:
382,207,198480,2,0,L|359:147,1,63.7500024318696,2|0,0:0|0:0,0:0:0:0:
336,63,198825,6,0,B|349:101|336:141|304:164|270:168,1,144.500002756119,4|0,0:0|0:0,0:0:0:0:
260,89,199342,1,0,0:0:0:0:
415,112,199515,2,0,L|515:127,1,72.2500013780594,2|0,0:2|0:0,0:0:0:0:
387,186,199860,2,0,L|459:197,1,72.2500013780594,2|0,0:3|0:0,0:0:0:0:
330,333,200205,5,4,0:0:0:0:
359,260,200377,1,0,0:0:0:0:
407,321,200549,2,0,L|461:390,1,72.2500013780594,,,0:0:0:0:
475,234,200894,2,0,L|486:306,1,72.2500013780594,2|8,0:2|0:0,0:0:0:0:
424,160,201239,2,0,L|396:227,1,72.2500013780594,,,0:0:0:0:
397,85,201584,6,0,B|366:121|311:126|272:95|261:55,1,144.500002756119,4|0,0:0|0:0,0:0:0:0:
337,32,202101,1,0,0:0:0:0:
329,147,202273,2,0,L|323:243,1,72.2500013780594,2|8,0:2|0:0,0:0:0:0:
187,219,202618,2,0,L|183:147,1,72.2500013780594,,,0:0:0:0:
256,337,202963,5,4,0:0:0:0:
256,258,203136,1,0,0:0:0:0:
187,297,203308,1,0,0:0:0:0:
325,297,203480,2,0,B|368:297|368:297|395:273|437:273|462:294,1,144.500002756119,2|8,0:2|0:0,0:0:0:0:
417,361,203998,1,0,0:0:0:0:
257,134,204342,6,0,L|423:163,1,144.500002756119,4|0,0:0|0:0,0:0:0:0:
336,108,204860,1,0,0:0:0:0:
316,221,205032,2,0,L|303:292,1,72.2500013780594,2|8,0:2|0:0,0:0:0:0:
196,221,205377,2,0,L|208:292,1,72.2500013780594,2|0,0:3|0:0,0:0:0:0:
84,245,205722,5,4,0:0:0:0:
128,177,205894,1,0,0:0:0:0:
152,287,206067,2,0,L|164:358,1,72.2500013780594,,,0:0:0:0:
316,221,206411,2,0,L|303:292,1,72.2500013780594,2|8,0:2|0:0,0:0:0:0:
183,149,206756,2,0,L|195:220,1,72.2500013780594,,,0:0:0:0:
367,115,207101,6,0,L|341:257,1,144.500002756119,4|0,0:0|0:0,0:0:0:0:
388,322,207618,1,0,0:0:0:0:
423,250,207791,2,0,B|435:180|435:180|482:189|515:156,1,144.500002756119,2|0,0:2|0:0,0:0:0:0:
455,101,208308,1,0,0:0:0:0:
316,175,208480,6,0,B|327:229|382:262|434:247,1,144.500002756119,4|0,0:0|0:0,0:0:0:0:
367,115,208998,2,0,L|236:176,1,144.500002756119,2|0,0:2|0:0,0:0:0:0:
134,224,209515,1,0,0:0:0:0:
161,148,209687,1,0,0:0:0:0:
210,251,209859,5,4,0:0:0:0:
236,175,210032,1,0,0:0:0:0:
149,304,210205,2,0,L|124:372,1,72.2500013780594,,,0:0:0:0:
48,211,210549,2,0,L|73:280,1,72.2500013780594,2|8,0:2|0:0,0:0:0:0:
210,251,210894,1,2,0:3:0:0:
134,224,211067,1,0,0:0:0:0:
224,329,211239,6,0,B|249:325|270:309|280:288,1,72.2500013780594,4|0,0:0|0:0,0:0:0:0:
268,138,211584,2,0,B|259:163|263:188|276:208,1,72.2500013780594,,,0:0:0:0:
411,272,211929,2,0,B|394:252|370:242|346:243,1,72.2500013780594,2|8,0:2|0:0,0:0:0:0:
424,351,212273,1,0,0:0:0:0:
485,300,212446,1,0,0:0:0:0:
349,323,212618,6,0,L|247:341,1,72.2500013780594,4|0,0:0|0:0,0:0:0:0:
211,243,212963,2,0,L|283:256,1,72.2500013780594,,,0:0:0:0:
203,322,213308,2,0,L|101:340,1,72.2500013780594,2|8,0:2|0:0,0:0:0:0:
38,270,213653,1,0,0:0:0:0:
117,255,213825,1,0,0:0:0:0:
53,349,213997,5,4,0:0:0:0:
64,194,214170,2,0,B|85:175|113:170|138:179,1,72.2500013780594,,,0:0:0:0:
256,246,214515,2,0,B|186:269|186:269|116:254,1,144.500002756119,2|8,0:2|0:0,0:0:0:0:
227,171,215032,1,0,0:0:0:0:
256,246,215205,1,0,0:0:0:0:
289,120,215377,5,4,0:0:0:0:
335,240,215549,2,0,B|336:270|322:297|299:313,1,72.2500013780594,,,0:0:0:0:
256,246,215894,1,0,0:0:0:0:
356,163,216067,2,0,L|435:175,1,72.2500013780594,2|8,0:2|0:0,0:0:0:0:
478,86,216411,2,0,L|407:97,1,72.2500013780594,2,0:0,0:0:0:0:
289,120,216756,5,4,0:0:0:0:
356,163,216929,1,0,0:0:0:0:
340,54,217101,2,0,B|317:38|289:34|264:42,1,72.2500013780594,,,0:0:0:0:
146,109,217446,2,0,B|171:115|196:110|215:96,1,72.2500013780594,2|8,0:2|0:0,0:0:0:0:
87,51,217791,1,0,0:0:0:0:
124,186,217963,1,0,0:0:0:0:
174,41,218136,5,4,0:0:0:0:
67,130,218308,2,0,B|43:152|38:186|51:213,1,72.2500013780594,,,0:0:0:0:
92,259,218653,1,0,0:0:0:0:
200,166,218825,2,0,L|279:145,1,72.2500013780594,2|8,0:2|0:0,0:0:0:0:
378,117,219170,1,0,0:0:0:0:
309,78,219342,1,0,0:0:0:0:
339,186,219515,6,0,L|360:265,2,72.2500013780594,4|0|0,0:0|0:0|0:0,0:0:0:0:
378,38,220032,2,0,B|423:39|459:73|465:118|447:153,1,144.500002756119,2|8,0:2|0:0,0:0:0:0:
269,147,220549,1,0,0:0:0:0:
378,117,220722,1,0,0:0:0:0:
300,255,220894,6,0,L|321:334,2,72.2500013780594,4|0|0,0:3|0:0|0:0,0:0:0:0:
378,117,221411,2,0,L|357:38,2,72.2500013780594,0|2|0,0:0|0:0|0:0,0:0:0:0:
339,186,221929,1,0,0:0:0:0:
380,255,222101,6,0,B|413:288|465:290|503:261|515:223,1,144.500002756119,4|0,0:0|0:0,0:0:0:0:
458,128,222618,2,0,L|438:198,1,72.2500013780594,0|0,3:0|0:0,0:0:0:0:
340,104,222963,2,0,L|361:174,1,72.2500013780594,0|0,3:0|0:0,0:0:0:0:
267,71,223308,2,0,L|246:140,1,72.2500013780594,0|0,3:0|0:0,0:0:0:0:
151,143,223653,6,0,B|221:159|221:159|245:231,1,144.500002756119,2|0,0:2|0:0,0:0:0:0:
266,304,224170,1,0,0:0:0:0:
190,286,224342,2,0,B|200:245|237:218|279:219|310:238,1,144.500002756119,2|0,0:2|0:0,0:0:0:0:
368,377,224860,6,0,B|327:388|285:370|264:333|266:296,1,144.500002756119,4|0,0:2|0:0,0:0:0:0:
388,243,225377,2,0,L|345:301,1,72.2500013780594,0|0,3:0|0:0,0:0:0:0:
276,164,225722,2,0,L|304:231,1,72.2500013780594,0|0,3:0|0:0,0:0:0:0:
429,174,226067,2,0,L|357:164,1,72.2500013780594,0|0,3:0|0:0,0:0:0:0:
247,82,226411,6,0,L|319:92,1,72.2500013780594,2|0,0:0|0:0,0:0:0:0:
276,164,226756,2,0,L|205:174,1,72.2500013780594,,,0:0:0:0:
95,259,227101,1,2,0:0:0:0:
174,247,227273,1,0,0:0:0:0:
125,185,227446,1,0,0:0:0:0:
144,320,227618,6,0,B|184:336|229:321|253:284|253:246,1,144.500002756119,4|0,0:0|0:0,0:0:0:0:
276,164,228136,1,0,3:0:0:0:
324,226,228308,1,0,0:0:0:0:
347,133,228480,1,0,3:0:0:0:
396,196,228653,1,0,0:0:0:0:
426,122,228825,2,0,L|445:74,2,36.1250006890297,0|0|0,3:0|0:0|0:0,0:0:0:0:
385,273,229170,6,0,B|357:309|306:317|266:291|252:254,1,144.500002756119,2|0,0:0|0:0,0:0:0:0:
208,210,229687,1,0,0:0:0:0:
343,156,229860,2,0,L|321:237,2,72.2500013780594,2|0|0,0:0|0:0|0:0,0:0:0:0:
277,15,230377,6,0,B|257:24|245:59|245:59|262:147,1,144.500002756119,4|0,0:0|0:0,0:0:0:0:
208,210,230894,1,0,3:0:0:0:
180,132,231066,1,0,0:0:0:0:
127,197,231239,1,0,3:0:0:0:
99,119,231411,1,0,0:0:0:0:
45,182,231584,1,0,3:0:0:0:
180,132,231756,1,0,0:0:0:0:
156,274,231929,5,4,0:3:0:0:
290,223,232101,2,0,B|291:192|279:164|258:144,1,72.2500013780594,,,0:0:0:0:
208,210,232446,1,0,0:0:0:0:
319,300,232618,2,0,B|348:287|366:261|371:232,1,72.2500013780594,2|0,0:0|0:0,0:0:0:0:
290,223,232963,1,0,0:0:0:0:
267,364,233136,6,0,B|321:377|321:377|423:345,1,144.500002756119,4|0,0:0|0:0,0:0:0:0:
434,217,233653,1,0,3:0:0:0:
463,294,233826,1,0,0:0:0:0:
360,188,233998,1,0,3:0:0:0:
331,265,234171,1,0,0:0:0:0:
268,124,234342,1,0,3:0:0:0:
282,202,234515,1,0,0:0:0:0:
346,110,234687,6,0,B|338:69|303:41|262:38|230:55,1,144.500002756119,2|0,0:0|0:0,0:0:0:0:
207,175,235205,2,0,L|177:200,2,36.1250006890297,0|0|2,0:0|0:0|0:0,0:0:0:0:
268,124,235549,1,0,0:0:0:0:
282,202,235722,1,0,0:0:0:0:
193,97,235894,6,0,L|136:30,1,72.2500013780594,4|0,0:0|0:0,0:0:0:0:
80,156,236239,1,0,0:0:0:0:
207,175,236411,1,0,3:0:0:0:
115,84,236584,1,0,0:0:0:0:
115,84,236670,1,0,0:0:0:0:
115,84,236756,1,0,3:0:0:0:
137,212,236929,1,0,0:0:0:0:
193,97,237101,1,0,3:0:0:0:
281,201,237273,1,0,0:0:0:0:
253,45,237446,5,0,0:0:0:0:
207,175,237618,1,0,0:0:0:0:
115,84,237791,1,8,0:0:0:0:
137,212,237963,1,0,0:0:0:0:
193,97,238135,1,0,0:0:0:0:
204,254,238308,1,0,0:0:0:0:
80,156,238480,1,8,0:0:0:0:
57,312,238653,1,0,0:0:0:0:
137,212,238825,5,8,0:0:0:0:
235,307,238998,1,0,0:0:0:0:
268,174,239170,1,8,0:0:0:0:
158,288,239343,1,0,0:0:0:0:
116,136,239515,1,8,0:0:0:0:
61,284,239687,1,0,0:0:0:0:
193,197,239860,1,8,0:0:0:0:
107,371,240032,1,0,0:0:0:0:
35,191,240205,5,8,0:0:0:0:
41,169,240291,1,0,0:0:0:0:
53,150,240377,1,0,0:0:0:0:
69,135,240463,1,0,0:0:0:0:
89,125,240549,1,8,0:0:0:0:
112,120,240636,1,0,0:0:0:0:
134,122,240722,1,0,0:0:0:0:
155,130,240808,1,0,0:0:0:0:
173,143,240894,5,8,0:0:0:0:
189,158,240980,1,0,0:0:0:0:
207,171,241066,1,0,0:0:0:0:
227,181,241152,1,0,0:0:0:0:
249,187,241238,1,8,0:0:0:0:
271,190,241325,1,0,0:0:0:0:
294,188,241411,1,0,0:0:0:0:
316,183,241497,1,0,0:0:0:0:
337,174,241584,6,0,L|375:106,1,42.5,8|0,0:0|0:0,0:0:0:0:
313,31,241756,2,0,L|293:69,1,42.5,2|0,0:3|0:0,0:0:0:0:
343,197,241929,6,0,L|381:129,1,42.5,8|0,0:0|0:0,0:0:0:0:
319,54,242101,2,0,L|298:91,1,42.5,2|0,0:3|0:0,0:0:0:0:
349,220,242273,6,0,L|387:152,1,42.5,8|0,0:0|0:0,0:0:0:0:
325,77,242445,2,0,L|304:114,1,42.5,2|0,0:3|0:0,0:0:0:0:
315,298,242618,5,2,3:1:0:0:
32,79,242963,6,0,L|140:96,1,85,4|0,0:0|0:0,0:0:0:0:
104,176,243308,2,0,L|187:162,1,85,8|0,0:0|0:0,0:0:0:0:
305,144,243653,1,0,0:0:0:0:
237,94,243825,1,0,0:0:0:0:
255,212,243998,1,8,0:0:0:0:
314,60,244170,6,0,B|299:25|264:7|230:10,1,85,2|0,0:2|0:0,0:0:0:0:
187,162,244515,1,0,0:0:0:0:
338,221,244687,1,8,0:0:0:0:
305,144,244860,1,0,0:0:0:0:
290,290,245032,1,0,0:0:0:0:
420,231,245205,1,0,0:0:0:0:
255,212,245377,1,8,0:0:0:0:
236,222,245463,1,0,0:0:0:0:
221,236,245549,1,0,0:0:0:0:
210,255,245635,1,0,0:0:0:0:
205,275,245722,6,0,B|199:317|199:317|214:368,1,85,2|0,0:0|0:0,0:0:0:0:
121,202,246067,2,0,B|133:243|133:243|126:284,1,85,8|0,0:0|0:0,0:0:0:0:
255,212,246411,1,0,0:0:0:0:
187,162,246584,1,0,0:0:0:0:
205,275,246756,1,8,0:0:0:0:
264,129,246929,6,0,B|248:96|214:79|181:84,1,85,2|0,0:2|0:0,0:0:0:0:
121,202,247273,1,0,0:0:0:0:
284,286,247446,1,8,0:0:0:0:
187,162,247618,1,0,0:0:0:0:
205,275,247790,1,0,0:0:0:0:
255,212,247963,1,0,0:0:0:0:
234,349,248136,2,0,B|208:364|208:364|125:370,1,85,8|0,0:0|0:0,0:0:0:0:
40,220,248480,6,0,B|66:205|66:205|149:199,1,85,2|0,0:2|0:0,0:0:0:0:
163,105,248825,2,0,B|137:120|137:120|83:124,1,85,8|0,0:0|0:0,0:0:0:0:
214,276,249170,1,0,0:0:0:0:
120,201,249342,1,0,0:0:0:0:
130,285,249515,1,8,0:0:0:0:
205,192,249687,6,0,L|298:182,1,85,2|0,0:2|0:0,0:0:0:0:
323,104,250032,1,0,0:0:0:0:
187,43,250205,1,8,0:0:0:0:
238,113,250377,1,0,0:0:0:0:
358,25,250549,1,0,0:0:0:0:
272,34,250721,1,0,0:0:0:0:
289,182,250894,1,8,0:0:0:0:
291,204,250980,1,0,0:0:0:0:
294,225,251066,1,0,0:0:0:0:
296,246,251152,1,0,0:0:0:0:
298,267,251239,6,0,B|312:316|363:345|415:332|444:297,1,170,2|8,0:0|0:0,0:0:0:0:
379,243,251756,1,0,0:0:0:0:
217,291,251929,2,0,L|118:321,2,85,0|0|8,0:0|0:0|0:0,0:0:0:0:
317,184,252446,6,0,B|394:159|394:159|448:169|461:225,1,170,2|0,0:2|0:0,0:0:0:0:
278,349,252963,1,8,0:0:0:0:
298,267,253135,1,0,0:0:0:0:
399,325,253308,1,0,0:0:0:0:
379,243,253480,1,0,0:0:0:0:
217,291,253653,2,0,L|118:321,1,85,8|0,0:0|0:0,0:0:0:0:
134,151,253998,6,0,L|159:233,1,85,4|0,0:2|0:0,0:0:0:0:
298,150,254342,2,0,L|216:174,1,85,8|0,0:0|0:0,0:0:0:0:
259,315,254687,1,0,0:0:0:0:
279,233,254859,1,0,0:0:0:0:
197,256,255032,1,8,0:0:0:0:
339,292,255205,6,0,L|432:265,1,85,2|0,0:2|0:0,0:0:0:0:
441,185,255549,1,0,0:0:0:0:
298,150,255722,1,8,0:0:0:0:
360,209,255894,1,0,0:0:0:0:
461,103,256067,1,0,0:0:0:0:
380,126,256239,1,0,0:0:0:0:
420,268,256411,1,8,0:0:0:0:
425,288,256497,1,0,0:0:0:0:
431,308,256583,1,0,0:0:0:0:
437,329,256669,1,0,0:0:0:0:
443,349,256756,6,0,B|484:357|484:357|560:328,1,85,2|0,0:0|0:0,0:0:0:0:
441,201,257101,2,0,B|400:193|400:193|324:222,1,85,8|0,0:0|0:0,0:0:0:0:
220,218,257446,1,0,0:0:0:0:
339,292,257618,1,0,0:0:0:0:
287,163,257791,1,8,0:0:0:0:
251,298,257963,6,0,L|287:394,1,85,2|0,0:2|0:0,0:0:0:0:
339,292,258308,1,0,0:0:0:0:
287,163,258480,1,8,0:0:0:0:
220,218,258653,1,0,0:0:0:0:
184,48,258826,1,0,0:0:0:0:
270,76,258998,1,0,0:0:0:0:
100,92,259170,2,0,L|-10:101,1,85,8|0,0:0|0:0,0:0:0:0:
15,284,259515,6,0,L|100:292,1,85,2|0,0:2|0:0,0:0:0:0:
256,192,259860,2,0,L|130:192,1,85,8|0,0:0|0:0,0:0:0:0:
256,344,260205,1,0,0:0:0:0:
209,268,260377,1,0,0:0:0:0:
166,346,260549,1,8,0:0:0:0:
346,346,260722,6,0,L|472:346,1,85,2|0,0:2|0:0,0:0:0:0:
457,265,261067,1,0,0:0:0:0:
305,188,261239,1,8,0:0:0:0:
326,266,261411,1,0,0:0:0:0:
409,127,261584,1,0,0:0:0:0:
388,205,261756,1,0,0:0:0:0:
270,27,261929,1,8,0:0:0:0:
248,25,262015,1,0,0:0:0:0:
227,23,262101,1,0,0:0:0:0:
206,21,262187,1,0,0:0:0:0:
185,19,262273,6,0,B|155:27|134:51|129:79,1,85,2|0,0:0|0:0,0:0:0:0:
234,175,262618,2,0,B|242:145|231:115|209:96,1,85,8|0,0:0|0:0,0:0:0:0:
96,218,262963,1,0,0:0:0:0:
178,236,263135,1,0,0:0:0:0:
152,157,263308,1,8,0:0:0:0:
122,297,263480,1,0,0:0:0:0:
70,139,263653,6,0,L|51:86,1,42.5,2|0,0:3|2:0,0:0:0:0:
96,218,263825,1,0,0:0:0:0:
152,157,263998,1,0,0:0:0:0:
205,316,264170,6,0,L|224:369,1,42.5,2|0,0:3|2:0,0:0:0:0:
178,236,264342,1,0,0:0:0:0:
122,297,264515,1,0,0:0:0:0:
234,175,264687,5,8,0:0:0:0:
96,218,264860,1,2,0:0:0:0:
260,254,265032,6,0,L|327:271,1,42.5,2|0,0:0|2:0,0:0:0:0:
152,157,265205,2,0,L|133:104,1,42.5,2|0,0:2|2:0,0:0:0:0:
122,297,265377,2,0,L|85:339,1,42.5,8|0,0:0|2:0,0:0:0:0:
234,175,265549,6,0,L|327:160,1,85,2|0,0:2|0:0,0:0:0:0:
163,61,265894,2,0,L|256:76,1,85,2|8,0:2|0:0,0:0:0:0:
68,170,266239,2,0,L|161:155,1,85,2|0,0:2|0:0,0:0:0:0:
55,87,266584,5,0,0:0:0:0:
3,225,266756,1,8,0:0:0:0:
161,284,266929,1,0,0:0:0:0:
69,171,267101,1,0,0:0:0:0:
82,254,267273,1,0,0:0:0:0:
135,118,267446,1,8,0:0:0:0:
3,225,267618,1,0,0:0:0:0:
148,201,267791,6,0,B|203:190|203:190|259:200|259:200|315:191,1,170,2|8,0:0|0:0,0:0:0:0:
278,52,268308,2,0,B|247:87|246:139|275:177|314:191,1,170,2|0,0:0|0:0,0:0:0:0:
340,110,268825,1,8,0:0:0:0:
185,74,268998,6,0,L|79:79,1,85,6|0,0:2|0:0,0:0:0:0:
3,225,269342,2,0,L|87:229,1,85,2|8,0:2|0:0,0:0:0:0:
221,154,269687,2,0,L|137:159,1,85,2|0,0:2|0:0,0:0:0:0:
249,232,270032,1,0,0:0:0:0:
273,89,270205,1,8,0:0:0:0:
273,89,270291,1,0,0:0:0:0:
273,89,270377,1,0,0:0:0:0:
330,246,270549,6,0,L|320:310,1,42.5,2|0,0:0|2:0,0:0:0:0:
348,127,270722,2,0,L|355:81,1,42.5,2|0,0:2|2:0,0:0:0:0:
279,177,270894,2,0,L|234:170,1,42.5,8|0,0:0|2:0,0:0:0:0:
398,195,271067,6,0,L|485:208,1,85,2|0,0:2|0:0,0:0:0:0:
273,89,271411,2,0,L|358:77,1,85,2|8,0:2|0:0,0:0:0:0:
162,244,271756,2,0,L|249:257,1,85,2|0,0:2|0:0,0:0:0:0:
398,195,272101,5,0,0:0:0:0:
348,127,272273,1,8,0:0:0:0:
330,246,272446,1,0,0:0:0:0:
431,121,272618,1,0,0:0:0:0:
279,177,272791,1,0,0:0:0:0:
408,279,272963,1,8,0:0:0:0:
398,195,273136,1,0,0:0:0:0:
340,329,273308,6,0,B|371:372|432:381|477:346|489:300,1,170,2|8,0:0|0:0,0:0:0:0:
431,121,273825,2,0,B|395:172|395:172|408:278,1,170,2|0,0:0|0:0,0:0:0:0:
475,228,274342,1,8,0:0:0:0:
330,246,274515,6,0,B|223:260,1,85,4|0,0:2|0:0,0:0:0:0:
147,308,274860,2,0,B|232:297,1,85,2|8,0:2|0:0,0:0:0:0:
279,177,275205,2,0,B|172:191,1,85,2|0,0:2|0:0,0:0:0:0:
330,246,275549,1,2,0:0:0:0:
313,98,275722,2,0,B|276:82|235:94|211:123,1,85,8|0,0:0|0:0,0:0:0:0:
245,257,276067,6,0,L|218:330,1,42.5,2|0,0:0|2:0,0:0:0:0:
414,234,276239,2,0,L|491:224,1,42.5,2|0,0:2|2:0,0:0:0:0:
279,177,276411,2,0,L|239:127,1,42.5,8|0,0:0|2:0,0:0:0:0:
381,315,276584,6,0,B|414:328|450:320|474:297,1,85,2|0,0:2|0:0,0:0:0:0:
330,245,276929,2,0,B|306:264|295:292|297:320,1,85,2|8,0:2|0:0,0:0:0:0:
213,154,277273,2,0,B|236:173|247:201|246:229,1,85,2|0,0:2|0:0,0:0:0:0:
127,145,277618,5,2,0:2:0:0:
264,85,277791,1,8,0:0:0:0:
163,224,277963,1,0,0:0:0:0:
93,67,278136,1,0,0:0:0:0:
213,154,278308,1,0,0:0:0:0:
40,135,278480,1,8,0:0:0:0:
177,74,278653,1,0,0:0:0:0:
299,162,278825,6,0,B|298:196|276:224|247:236,1,85,2|0,0:0|0:0,0:0:0:0:
213,154,279170,1,8,0:0:0:0:
349,94,279342,2,0,B|379:78|414:83|439:102,1,85,2|0,0:0|0:0,0:0:0:0:
385,172,279687,1,0,0:0:0:0:
264,85,279860,1,8,0:0:0:0:
249,233,280032,1,6,0:2:0:0:
299,162,280205,5,0,0:0:0:0:
127,145,280377,2,0,L|21:134,1,85,2|8,0:2|0:0,0:0:0:0:
164,241,280722,2,0,L|248:232,1,85,2|0,0:2|0:0,0:0:0:0:
213,154,281067,1,0,0:0:0:0:
200,320,281239,1,8,0:0:0:0:
200,320,281325,1,0,0:0:0:0:
200,320,281411,1,0,0:0:0:0:
334,239,281584,6,0,L|392:240,1,42.5,2|0,0:0|2:0,0:0:0:0:
213,154,281756,2,0,L|170:154,1,42.5,2|0,0:2|2:0,0:0:0:0:
347,91,281929,2,0,L|367:53,1,42.5,8|0,0:0|2:0,0:0:0:0:
248,232,282101,6,0,L|164:241,1,85,2|0,0:2|0:0,0:0:0:0:
33,179,282446,2,0,B|58:162|89:161|115:172,1,85,2|8,0:2|0:0,0:0:0:0:
126,316,282791,2,0,B|99:302|82:276|79:248,1,85,2|0,0:2|0:0,0:0:0:0:
213,154,283136,5,2,0:2:0:0:
248,232,283308,1,8,0:0:0:0:
274,96,283480,1,0,0:0:0:0:
333,222,283653,1,0,0:0:0:0:
349,138,283825,1,0,0:0:0:0:
417,238,283998,1,8,0:0:0:0:
433,154,284170,1,0,0:0:0:0:
361,302,284342,6,0,B|393:330|439:329|469:305,1,85,2|0,0:0|0:0,0:0:0:0:
417,238,284687,1,8,0:0:0:0:
278,286,284860,2,0,B|269:327|293:366|329:381,1,85,2|0,0:0|0:0,0:0:0:0:
417,238,285205,1,0,0:0:0:0:
249,206,285377,1,8,0:0:0:0:
361,302,285549,1,6,0:2:0:0:
361,302,285636,1,0,0:0:0:0:
361,302,285722,5,2,0:3:0:0:
433,154,285894,1,0,0:0:0:0:
333,222,286067,1,0,0:0:0:0:
497,209,286239,5,2,0:3:0:0:
349,138,286411,1,0,0:0:0:0:
417,238,286584,1,0,0:0:0:0:
404,73,286756,5,8,0:0:0:0:
361,302,286929,1,2,0:0:0:0:
268,166,287101,6,0,L|193:100,1,85,4|0,0:2|0:0,0:0:0:0:
340,20,287446,2,0,L|285:84,1,85,8|0,0:0|0:0,0:0:0:0:
333,222,287791,1,0,0:0:0:0:
433,154,287964,1,0,0:0:0:0:
349,138,288136,1,8,0:0:0:0:
361,302,288308,6,0,B|393:330|439:329|469:305,1,85,2|0,0:2|0:0,0:0:0:0:
417,238,288653,1,0,0:0:0:0:
277,285,288825,1,8,0:0:0:0:
304,366,288998,1,2,0:2:0:0:
213,228,289170,1,0,0:0:0:0:
196,312,289343,1,2,0:0:0:0:
104,174,289515,1,8,0:0:0:0:
131,255,289687,1,0,0:0:0:0:
185,147,289860,6,0,L|223:71,1,85,2|0,0:2|0:0,0:0:0:0:
353,149,290205,2,0,L|269:161,1,85,8|0,0:0|0:0,0:0:0:0:
342,65,290549,1,0,0:0:0:0:
438,138,290721,1,0,0:0:0:0:
427,54,290894,1,8,0:0:0:0:
354,149,291067,1,0,0:0:0:0:
329,23,291238,5,0,0:0:0:0:
450,179,291411,1,0,0:0:0:0:
468,42,291584,1,8,0:0:0:0:
312,161,291756,1,2,0:2:0:0:
244,39,291929,1,0,0:0:0:0:
371,97,292101,1,2,0:0:0:0:
234,124,292273,1,8,0:0:0:0:
329,23,292446,1,2,0:2:0:0:
312,161,292618,6,0,B|299:188|274:205|247:211,1,85,4|0,0:2|0:0,0:0:0:0:
158,92,292963,2,0,B|188:89|215:102|233:123,1,85,8|0,0:0|0:0,0:0:0:0:
177,265,293308,1,0,0:0:0:0:
164,178,293480,1,0,0:0:0:0:
258,297,293653,1,8,0:0:0:0:
313,161,293825,6,0,B|330:126|321:86|295:62,1,85,2|0,0:2|0:0,0:0:0:0:
234,124,294170,1,0,0:0:0:0:
321,248,294342,1,8,0:0:0:0:
392,197,294515,1,2,0:2:0:0:
329,334,294687,1,0,0:0:0:0:
241,210,294860,1,2,0:0:0:0:
400,283,295032,1,8,0:0:0:0:
313,161,295205,1,0,0:0:0:0:
329,334,295377,6,0,B|354:369|400:380|436:362,1,85,2|0,0:2|0:0,0:0:0:0:
476,189,295722,2,0,L|392:197,1,85,8|0,0:0|0:0,0:0:0:0:
270,177,296067,1,0,0:0:0:0:
321,248,296239,1,0,0:0:0:0:
341,126,296411,1,8,0:0:0:0:
234,256,296584,1,0,0:0:0:0:
391,197,296756,5,0,0:0:0:0:
240,136,296929,1,0,0:0:0:0:
323,146,297101,1,8,0:0:0:0:
163,169,297273,1,2,0:2:0:0:
343,77,297446,1,0,0:0:0:0:
199,148,297618,1,2,0:0:0:0:
282,135,297791,1,8,0:0:0:0:
123,110,297963,1,2,0:2:0:0:
252,213,298136,6,0,B|287:224|322:214|347:191,1,85,4|0,0:2|0:0,0:0:0:0:
314,57,298480,2,0,L|282:135,1,85,8|0,0:0|0:0,0:0:0:0:
419,188,298825,1,0,0:0:0:0:
367,122,298997,1,0,0:0:0:0:
388,267,299170,1,8,0:0:0:0:
503,176,299342,6,0,B|498:143|475:118|446:108,1,85,2|0,0:2|0:0,0:0:0:0:
335,200,299687,1,0,0:0:0:0:
471,254,299860,1,8,0:0:0:0:
419,188,300032,1,2,0:2:0:0:
303,278,300205,1,0,0:0:0:0:
251,211,300377,1,2,0:0:0:0:
388,267,300549,2,0,L|480:301,1,85,8|2,0:0|0:2,0:0:0:0:
448,108,300894,6,0,L|419:188,1,85,2|0,0:2|0:0,0:0:0:0:
289,48,301239,2,0,L|369:78,1,85,8|0,0:0|0:0,0:0:0:0:
251,211,301584,1,0,0:0:0:0:
217,77,301756,1,0,0:0:0:0:
165,204,301929,1,8,0:0:0:0:
283,132,302101,1,0,0:0:0:0:
316,264,302273,5,0,0:0:0:0:
368,138,302445,1,0,0:0:0:0:
251,211,302618,1,8,0:0:0:0:
283,132,302791,1,2,0:2:0:0:
388,220,302963,1,0,0:0:0:0:
330,61,303136,1,2,0:0:0:0:
251,211,303308,2,0,B|225:244|227:288|251:318,1,85,8|2,0:0|0:2,0:0:0:0:
390,304,303653,5,6,0:0:0:0:
368,138,303825,1,0,0:0:0:0:
316,264,303998,1,8,0:0:0:0:
449,161,304170,1,0,0:0:0:0:
464,344,304342,1,0,0:0:0:0:
388,220,304515,1,2,0:0:0:0:
244,308,304687,1,8,0:0:0:0:
186,158,304860,1,0,0:0:0:0:
316,264,305032,5,0,0:0:0:0:
368,138,305205,1,0,0:0:0:0:
251,211,305377,1,8,0:0:0:0:
330,61,305549,1,2,0:2:0:0:
388,220,305722,1,0,0:0:0:0:
283,132,305894,1,2,0:0:0:0:
390,304,306067,1,8,0:0:0:0:
368,138,306239,1,2,0:2:0:0:
237,293,306411,5,2,0:0:0:0:
251,315,306497,1,0,0:0:0:0:
270,333,306583,1,0,0:0:0:0:
294,345,306669,1,0,0:0:0:0:
320,351,306755,1,8,0:0:0:0:
346,350,306842,1,0,0:0:0:0:
371,342,306928,1,0,0:0:0:0:
394,327,307014,1,0,0:0:0:0:
412,308,307101,5,0,0:0:0:0:
422,283,307187,1,0,0:0:0:0:
427,257,307273,1,2,0:0:0:0:
424,231,307359,1,0,0:0:0:0:
415,206,307445,1,8,0:0:0:0:
405,182,307532,1,0,0:0:0:0:
402,155,307618,1,0,0:0:0:0:
406,129,307704,1,0,0:0:0:0:
416,105,307791,6,0,L|465:77,1,42.5,8|0,0:0|2:0,0:0:0:0:
317,167,307963,1,2,0:0:0:0:
297,51,308136,6,0,L|325:2,1,42.5,8|0,0:0|2:0,0:0:0:0:
242,154,308308,1,2,0:0:0:0:
166,63,308480,6,0,L|166:6,1,42.5,8|0,0:0|2:0,0:0:0:0:
170,180,308653,1,2,0:0:0:0:
58,138,308825,5,8,0:0:0:0:
25,288,308997,1,8,0:0:0:0:
